#TITLE:What Your Name;
#SUBTITLE:Expi3nze;
#ARTIST:4Minute;
#TITLETRANSLIT:;
#SUBTITLETRANSLIT:;
#ARTISTTRANSLIT:;
#CREDIT:;
#BANNER:bn.png;
#BACKGROUND:bg.png;
#LYRICSPATH:;
#CDTITLE:;
#MUSIC:What Your Name.mp3;
#OFFSET:-0.302;
#SAMPLESTART:50.388;
#SAMPLELENGTH:25.043;
#SELECTABLE:YES;
#BPMS:0.000=57.500,0.333=230.017,1.000=115.003,2.000=114.998,4.000=115.003,5.000=114.998,7.000=115.003,8.000=114.998,10.000=115.003,11.000=114.998,14.000=115.003,15.000=114.993,15.500=57.504,15.667=230.047,16.000=115.003,17.000=114.998,19.000=115.003,20.000=114.998,22.000=115.003,23.000=114.998,25.000=115.003,26.000=114.998,29.000=115.003,30.000=114.998,32.000=115.003,33.000=114.998,35.000=115.003,36.000=114.998,38.000=115.003,38.250=230.007,38.750=115.003,39.000=230.007,39.500=115.003,40.000=230.007,41.000=115.003,42.000=114.998,44.000=115.003,45.000=114.998,47.000=115.003,48.000=114.998,51.000=115.003,52.000=114.998,54.000=115.003,55.250=230.007,55.750=115.003,56.000=230.007,56.500=115.003,57.000=230.007,58.000=115.003,59.000=114.998,61.000=115.003,62.000=114.998,64.000=115.003,65.000=114.998,68.000=115.003,69.000=114.998,71.000=115.003,72.000=114.998,73.000=57.500,73.333=230.017,74.000=115.003,75.000=114.998,77.000=115.003,78.000=114.998,80.000=115.003,81.000=230.007,81.500=115.003,81.750=57.502,82.000=115.003,83.000=114.998,85.000=115.003,86.000=114.998,88.000=115.003,89.000=114.998,92.000=115.003,93.000=114.998,95.000=115.003,96.000=114.998,98.000=230.007,98.500=115.003,98.750=230.007,99.250=115.003,100.000=114.998,102.000=115.003,102.500=230.007,103.000=115.003,103.250=230.007,103.750=115.003,105.000=114.998,107.000=230.007,107.500=115.003,107.750=230.007,108.250=115.003,109.000=114.998,111.000=115.003,112.000=114.998,114.000=115.003,114.750=230.007,115.750=115.003,117.000=114.998,120.000=115.003,121.000=114.998,123.000=115.003,124.000=114.998,126.000=115.003,127.000=114.998,130.000=115.003,131.000=230.007,133.000=115.003,134.000=114.998,136.000=115.003,137.000=114.998,140.000=115.003,141.000=114.998,143.000=115.003,144.000=114.998,146.000=115.003,147.000=114.998,149.000=115.003,150.000=114.998,153.000=115.003,154.000=114.998,156.000=115.003,157.000=114.998,159.000=115.003,160.000=114.998,163.000=115.003,164.000=114.998,166.000=230.007,166.500=115.003,167.000=230.007,167.500=115.003,168.000=114.998,169.000=230.007,170.000=115.003,171.000=230.007,171.500=115.003,172.000=230.007,172.500=115.003,173.000=114.998,174.000=230.007,175.000=115.003,176.000=230.007,176.500=115.003,177.000=230.007,177.500=115.003,178.000=114.998,179.000=230.007,180.000=115.003,181.000=114.998,182.000=115.003,182.250=230.007,183.250=115.003,183.750=230.007,184.750=115.003,186.000=230.007,186.500=115.003,187.000=230.007,187.500=115.003,188.000=114.998,189.000=230.007,190.000=115.003,191.000=230.007,191.500=115.003,192.000=230.007,192.500=115.003,193.000=114.998,194.000=230.007,195.000=115.003,196.000=230.007,196.500=115.003,197.000=230.007,197.500=115.003,198.000=114.998,199.000=230.007,200.000=115.003,201.000=114.998,204.000=115.003,205.000=114.998,207.000=115.003,208.000=114.998,210.000=115.003,210.500=57.504,210.667=229.987,211.000=115.003,212.000=114.998,215.000=115.003,216.000=114.998,218.000=115.003,219.000=57.500,219.333=230.017,220.000=115.003,221.000=230.007,221.500=115.003,222.000=230.007,222.500=115.003,223.000=114.998,224.000=230.007,225.000=115.003,226.000=230.007,226.500=115.003,227.000=230.007,227.500=115.003,228.000=114.998,229.000=230.007,230.000=115.003,231.000=230.007,231.500=115.003,232.000=230.007,232.500=115.003,233.000=114.998,234.000=230.007,235.000=115.003,236.000=114.998,238.000=230.007,238.500=115.003,238.750=230.007,239.250=115.003,241.000=114.998,244.000=115.003;
#STOPS:;
#BGCHANGES:;
// cache tags:
#FIRSTBEAT:0.000;
#LASTBEAT:240.000;
#SONGFILENAME:Songs/9you/What Your Name (4Minute)/What Your Name.sm;
#HASMUSIC:1;
#HASBANNER:1;
#MUSICLENGTH:120.061;
// end cache tags

//---------------dance-single - ----------------
#NOTES:
     dance-single:
     :
     Easy:
     5:
     0.568,0.625,0.433,0.075,0.329,416.000,52.000,9.000,0.000,0.000:
0110
0000
1000
0001
0000
0010
0110
1000
,
0001
0000
0000
1000
0001
0000
1100
0000
0000
0000
0001
0000
0110
0000
1000
0000
,
0001
0000
1100
0001
0000
0100
1010
0001
,
0100
0000
0011
1000
0000
0100
0010
0001
,
0100
0000
0100
0000
0101
0000
1000
0000
0010
0000
0001
0000
1100
0000
0000
0100
,
0010
0000
0000
1000
0011
0000
1000
0000
0000
0000
0010
0000
0011
0000
1000
0000
,
0010
0000
0001
0000
1100
0000
0001
0000
0100
0000
0010
0000
0011
0000
0000
0001
,
0100
0000
0000
0010
0001
0000
1000
0100
0010
0001
0010
0100
1000
0000
0001
0000
,
1000
0000
0100
0000
0011
0000
1000
0001
0010
0000
1000
0000
0011
0000
1000
0000
,
0010
1000
0001
0010
0101
0000
0100
0000
,
0001
0000
0000
0000
1000
0000
0001
0000
1100
0001
0000
1000
0100
0000
0001
0000
,
0011
0100
1000
0000
0001
0000
0001
0000
1100
0000
0001
0000
1000
0000
0001
0000
,
1100
0000
0001
0000
0010
0000
0100
0000
1010
0001
0000
1000
0001
0000
0010
0000
,
1100
0001
0010
1000
0101
0001
1100
0000
,
0100
0000
0000
0000
0001
0000
0000
0000
0100
0000
0000
0000
0010
1000
0000
0000
,
0010
0000
1000
0000
0011
0000
1000
0000
0001
0000
0100
0000
0010
0000
0001
0010
,
0100
1000
0001
0000
0010
0000
0100
0000
0001
0000
1000
0000
0011
0000
1000
0000
,
0001
1000
0011
1000
0001
1000
0011
0010
,
1000
0100
0001
0000
1000
0001
0110
1000
,
0001
0100
1010
0001
0010
0100
0011
1000
,
1000
0001
0101
0000
0100
0001
1100
0100
,
0001
1000
0011
1000
0001
1000
1100
0001
,
0100
1000
0101
0000
1000
0001
0011
0100
,
0001
1000
1010
0100
0010
0100
1010
0100
,
1000
0000
0001
0000
1100
0000
0001
0000
1000
0000
0000
0001
0000
0000
1100
0000
,
1100
0000
0001
0000
0010
0000
1100
0000
0001
0000
0100
0000
0000
0001
0000
0000
,
0110
0000
0110
0000
0001
0000
1000
0100
0010
0100
0001
0000
1000
0000
0000
0010
,
0000
1100
0011
1000
0010
1000
1100
1100
,
0001
0000
1000
0000
0001
1000
0100
0010
0001
0000
0100
0000
0000
0000
0000
0000
,
1000
0000
0001
0000
1000
0000
0001
0000
1000
0000
0001
0010
0001
0000
0010
0001
,
0010
0000
1000
0000
0001
0000
1000
0100
1000
0000
0010
0001
0010
0000
1000
0000
,
0001
0000
1000
0000
0001
0000
1000
0000
0001
0000
1000
0100
0010
0000
1000
0100
,
0010
1000
0010
1000
0020
0000
0000
0000
,
0000
2030
0000
0000
,
0000
3020
0000
0000
,
0000
0032
0000
0000
,
0000
0203
0000
0000
,
0000
0000
1300
0001
1000
0001
1000
0001
,
1000
0100
0010
0100
1000
0100
0010
0100
,
0001
1000
0001
1000
0001
1000
0001
1000
,
0001
0000
0000
0000
1000
0010
0000
1000
0010
0000
1000
0100
0010
0001
1000
0000
,
1000
0100
0010
0000
1000
0000
0000
0001
0000
0000
0000
1000
0000
0000
0001
0000
,
0000
0100
0000
0000
0010
0000
0000
0000
1000
0000
0000
0001
0000
0000
0000
0100
,
0000
0000
0010
0000
0000
1000
0000
0000
0001
0000
0000
0000
0010
0000
0000
0100
,
0000
0000
0000
0001
0000
0000
1000
0000
0000
0010
0000
0000
1000
0000
0000
0000
,
0100
0000
0010
0000
1000
0000
0010
0000
2000
0000
0000
0000
0000
3000
0200
0000
,
0000
0000
0000
0000
0310
0000
0000
1000
0000
0000
0000
0001
0000
0000
0100
0000
,
0000
0001
0000
0000
1000
0000
0000
0000
0100
0000
0000
0001
0000
0000
0000
0010
,
0000
0000
0100
0000
0000
0010
0000
0000
1000
0000
0000
0000
0001
0000
0000
0100
,
0000
0000
0000
0001
0000
0000
0100
0000
0000
0001
0000
0000
1000
0000
0000
0000
,
1000
0100
0010
0001
1000
0000
0001
0000
1000
0100
0010
0001
1000
0100
0010
0001
,
0100
0000
1000
0000
0001
1000
0000
0001
1000
0000
0001
0000
1000
0001
1000
0000
,
0001
0010
1000
0001
1000
0011
0011
1000
,
0100
0000
0001
0000
0100
0001
0000
0100
0001
0000
0100
0000
0001
0100
0001
0000
,
0001
0000
1000
0000
0001
0000
1000
1000
0001
0000
1000
0000
0001
0000
0000
0000
,
0010
0000
0000
0001
0000
0000
0000
1000
0000
0000
0100
0000
0000
0001
0000
0000
,
0100
0000
0000
0000
1000
0000
0000
0001
0000
0000
0000
0010
0000
0000
1000
0000
,
0000
0100
0000
0000
0010
0000
0000
0000
0001
0000
0000
1000
0000
0000
0000
0001
,
0000
0000
0100
0000
0000
0010
0000
0000
0100
0000
0000
0000
1000
0000
0001
0000
,
1100
0000
0001
0010
0100
0001
0010
2000
0000
0000
3000
2000
0000
0000
0000
0000
,
3000
0000
0000
0000
,
0000
0000
0000
0000
,
0000
0000
0000
0000
,
0000
0000
0000
0000
,
0000
0000
0000
0000
,
0000
0000
0000
0000
,
0000
0000
0000
0000
,
0000
0000
0000
0000
,
0000
0000
0000
0000
,
0000
0000
0000
0000
,
0000
0000
0000
0000
,
0000
0000
0000
0000
,
0000
0000
0000
0000
,
0000
0000
0000
0000
,
0000
0000
0000
0000
;

//---------------dance-single - ----------------
#NOTES:
     dance-single:
     :
     Medium:
     9:
     0.821,0.750,1.000,0.383,0.558,498.000,146.000,46.000,0.000,19.000:
0110
0000
0000
0000
1001
0000
1001
0000
0000
0000
0010
0001
0110
0000
1000
0100
,
0010
0000
0000
1000
0001
0000
1100
0000
0000
0000
0001
0000
0110
0000
1000
0100
,
0010
0000
0000
0000
1100
0000
0001
0000
0000
0000
0100
0001
1010
0000
0001
0010
,
0100
0000
0011
1000
0000
0100
0010
0001
,
0100
0000
0100
0000
0101
0000
1000
0000
0010
0000
0001
0100
1001
0000
0000
0100
,
0010
0000
0000
1000
0011
0000
1000
0000
0000
0000
0010
0000
0011
0000
1000
1000
,
0010
0000
0001
0000
1100
0000
0001
0000
0100
0000
0010
1000
0011
0000
0000
0001
,
0100
0000
0000
0010
0001
0000
1000
0100
0010
0001
0010
0100
1010
0000
0001
0010
,
1000
0000
0100
0000
0011
1000
1000
0001
0010
0000
1000
0000
0011
1000
0100
0000
,
0010
1000
0011
0001
0110
0000
0110
0000
,
0110
0000
0000
0000
1000
0000
0001
0000
1100
0001
0000
1000
0100
0000
0001
0000
,
0011
0100
1000
0000
0001
0000
0001
0000
1100
0000
0001
0010
1000
0000
0001
0000
,
1100
0000
0001
0000
0110
0000
1000
0000
1100
0001
0000
1000
0001
0000
0010
0000
,
1100
0001
0010
0000
0100
0000
1000
0000
0101
0000
0001
0001
1100
0000
0000
0000
,
1100
0000
0000
0000
0101
0000
0000
0000
0001
0000
0100
0000
0011
1000
0000
0001
,
0010
0000
1000
0000
0011
0100
1000
0000
0001
0010
0100
0000
0101
0000
0001
0010
,
0100
0010
0001
0000
0110
0000
1000
0010
0100
0000
1000
0000
0011
0000
1000
0000
,
0001
0000
1000
0000
0011
0000
1000
0010
0001
0000
1000
0100
0011
0000
0001
0000
,
1000
0100
0002
0000
1003
0001
0110
1000
,
0001
0000
0010
0001
1010
0000
0001
0100
0010
0000
0100
1000
0101
0000
0010
0000
,
1000
0000
0001
0000
0101
0000
0000
0000
0100
0010
0001
1000
0110
0000
0100
0000
,
0001
0000
0010
1000
0011
0000
1000
0000
0001
0000
1000
0001
1100
0000
0001
0000
,
0100
0000
1000
0010
0101
0000
0000
0000
1000
0000
0001
1000
0011
0000
0100
0010
,
0001
0000
1000
0100
1010
0000
0100
0001
0010
0000
1000
0001
1010
0000
0100
0000
,
1000
0000
0001
0001
1100
0000
0001
0000
2000
0000
0000
3002
0000
0000
1103
0000
,
1100
0000
0001
0000
0010
0001
1100
0001
1000
0000
0200
0000
0000
0302
0000
0000
,
0113
0000
0110
0000
0001
0000
1000
0010
0101
0010
0001
0000
2000
0000
0000
3020
,
0000
0000
1130
0000
0011
0000
1000
0000
0010
0001
1000
0000
1100
0000
1100
0000
,
2000
0000
3200
0000
0320
1000
0130
0010
0001
0010
1100
0000
0000
0000
0000
0000
,
0110
0000
1001
0000
0110
0000
0110
0000
1001
0000
1000
0010
1001
0000
0010
0001
,
0010
0000
1000
0000
0101
0000
1000
0100
1001
0000
0010
0010
0010
0000
1000
0000
,
1100
0000
0011
0000
1100
0000
1100
0000
0011
0000
1000
0100
0011
0000
1000
0100
,
0010
1000
1010
1000
0020
0000
1000
0000
,
0000
0000
0000
0000
2030
0000
0010
0001
0010
0000
0010
0001
0000
0000
0010
0001
,
0010
0000
0010
0001
3020
0000
0100
0000
0001
0000
1000
0100
0000
0000
0100
0000
,
0000
0000
1000
0100
0032
0000
1000
0100
0010
0000
1000
0000
0100
0000
1000
0000
,
0010
0000
0000
0000
0203
0000
0010
0001
1010
0000
0001
0000
1000
0000
0001
0000
,
1000
0001
1310
0001
1010
0001
1010
0001
,
1010
0100
1010
0100
1010
0100
1010
0100
,
0011
1000
0011
1000
0011
1000
0011
1000
,
0011
0000
0000
0000
1000
0100
0000
1000
0100
0000
1000
0100
0010
0001
0010
0000
,
1100
0001
1100
0000
0010
0001
0010
1001
0000
0000
0000
1001
0000
0000
0110
0000
,
0000
0011
0000
0000
0011
0000
0000
0000
1000
0000
0000
0011
0000
0000
0000
0011
,
0000
0000
1010
0000
0000
1010
0000
0000
0011
0000
0000
0000
0001
0000
0000
0110
,
0000
0000
0000
1001
0000
0000
1001
0000
0000
0011
0000
0000
1010
0000
0000
0000
,
0100
0000
0010
1000
0110
0000
0010
0000
2000
0000
0000
0000
0000
3000
0200
0000
,
0000
0010
0000
0000
0310
0000
0000
1001
0000
0000
0000
1001
0000
0000
0110
0000
,
0000
0110
0000
0000
1000
0000
0000
0000
0100
0000
0000
0011
0000
0000
0000
0011
,
0000
0000
1100
0000
0000
0110
0000
0000
1100
0000
0000
0000
0001
0000
0000
0110
,
0000
0000
0000
1001
0000
0000
0101
0000
0000
0101
0000
0000
1010
0000
0000
0000
,
1000
0100
0010
0001
0010
0000
0001
0010
1000
0100
0010
0001
1100
0001
0100
0010
,
0001
0000
1000
0000
0001
1000
0000
0001
1000
0000
0001
0000
1000
0001
1000
0000
,
0001
0010
0100
0010
1000
0100
0010
0001
2000
0000
0110
0000
0110
0000
0001
0000
,
3100
0000
0001
0000
0100
0001
0000
0100
0001
0000
0100
0000
0001
0100
0001
0000
,
0011
0000
1100
0000
0011
0000
1000
1000
0011
0000
1100
0000
0011
0000
0000
0000
,
0011
0000
0000
2002
0000
0000
3003
2002
0000
0000
3203
0000
0000
0322
0000
0000
,
0200
0000
0000
0000
1333
0000
0000
0022
0000
0000
0033
0022
0000
0000
2033
0000
,
0000
3220
0000
0000
2000
0000
0000
0000
3331
0000
0000
2002
0000
0000
3003
2002
,
0000
0000
3203
0000
0000
0322
0000
0000
0200
0000
0000
0000
1333
0100
0001
0000
,
1100
0000
0001
0010
1100
0001
0010
2200
0000
0000
3300
2200
0000
0000
0000
0000
,
3300
0000
0000
0000
,
0000
0000
0000
0000
,
0000
0000
0000
0000
,
0000
0000
0000
0000
,
0000
0000
0000
0000
,
0000
0000
0000
0000
,
0000
0000
0000
0000
,
0000
0000
0000
0000
,
0000
0000
0000
0000
,
0000
0000
0000
0000
,
0000
0000
0000
0000
,
0000
0000
0000
0000
,
0000
0000
0000
0000
,
0000
0000
0000
0000
,
0000
0000
0000
0000
;

//---------------dance-single - ----------------
#NOTES:
     dance-single:
     :
     Hard:
     15:
     1.000,1.000,1.000,1.000,0.596,540.000,216.000,149.000,0.000,141.000:
0220
0000
0000
0000
1331
0000
1001
0000
0000
0000
0010
0001
1110
0000
1000
0100
,
0011
0000
0000
1010
0001
0000
1010
0000
0000
0000
0001
0000
0111
0000
1000
1000
,
0011
0000
0000
0000
1110
0000
1010
0000
0000
0000
0100
0001
1110
0000
0001
0010
,
1100
0000
0000
0000
0111
0000
1010
0000
0000
0000
0100
0000
0010
0100
0001
0000
,
0010
0000
1000
0000
0111
0000
1000
0000
0010
0000
0001
0100
1001
0000
0000
0100
,
0011
0000
0000
1100
0001
0000
1100
0000
0000
0000
0010
0000
0111
0000
1000
1000
,
0010
0000
0001
0000
1110
0000
0001
0000
0100
0000
0010
1000
0110
0000
0000
0001
,
0110
0000
0000
0001
0001
0000
0100
0010
0100
0001
1010
0001
1010
0000
0001
0001
,
1100
0000
1100
0000
0011
1000
0000
0001
1010
0000
1010
0000
0011
1000
1000
0000
,
0011
0000
1000
0000
0011
0000
0010
0001
0220
0000
0000
2332
0110
0000
3203
0000
,
0022
0000
0000
0000
1333
0000
0011
0000
1100
0001
0000
1000
0101
0000
0101
0000
,
0011
0100
1000
0000
0001
0000
0001
0000
1110
0000
0001
0001
1000
0000
0001
0000
,
1101
0000
0011
0000
0110
0000
1100
0000
1100
0001
0000
1000
0101
0000
0101
0000
,
1100
0001
0010
0000
0101
0000
1000
0000
0101
0000
0001
0001
2200
0000
0000
3322
,
1100
0000
2133
0000
0022
0000
0000
0000
3133
0000
1100
0000
0011
1000
0000
0001
,
0011
0000
1000
0000
0011
0100
1000
0000
0001
0010
0101
0000
0101
0000
0001
0010
,
1100
0001
1100
0000
0111
0000
1000
0010
0100
0000
1000
0000
0111
0000
1100
0000
,
0001
0000
1000
0000
0111
0000
1000
0010
0101
0000
0010
1100
0010
0000
0001
0000
,
1000
0100
0022
0000
1033
0001
0111
1100
,
0001
0000
0010
0001
1110
0000
0001
0100
0011
0000
0100
1010
0100
0000
0011
0000
,
1000
0000
0001
0000
0111
0000
0000
0000
0100
0010
0001
1000
0111
0000
0101
0000
,
0001
0000
0010
1000
0111
0000
1000
0000
0011
0000
1000
0001
1110
0000
0011
0000
,
0100
0000
1000
0010
1101
0000
0000
0000
1100
0000
0001
1000
0111
0000
1100
0010
,
0001
0000
1000
0001
2110
0000
0200
0001
3001
0000
1300
0001
1110
0000
0011
0000
,
1000
0000
0001
0001
1110
0000
0001
0000
2200
0000
0000
3322
0000
0000
1133
0000
,
1100
0000
0001
0000
0010
0001
1110
0001
1000
0000
0220
0000
0000
2332
0000
0000
,
3113
0000
0110
0000
0001
0000
1000
0010
1101
0010
0001
0000
2200
0000
0000
3322
,
0000
0000
1133
0000
0011
0000
1000
0000
0010
0001
1100
0000
0020
0000
1102
0000
,
2000
0000
0233
0000
3020
0001
1300
1000
1030
0001
1101
0000
0000
0000
0000
0000
,
0220
0000
2002
0330
0110
3003
0220
0000
2002
0330
0110
3113
1001
0000
1100
0001
,
1100
0000
0101
0000
0101
0000
1001
0100
1001
0000
0011
0011
0011
0000
1010
0000
,
2200
0000
0022
3300
1100
0033
2200
0000
0022
3300
1100
1133
0011
0000
1010
0001
,
1010
0000
0011
0000
1010
0000
1010
0000
0020
0000
0001
0001
2200
0000
0000
0000
,
0000
0000
0000
3300
2230
0000
0010
0001
0310
0000
0010
0010
0200
0000
0010
0001
,
0310
0000
0010
0001
3020
0000
0100
0000
0001
0000
0100
0100
0002
0000
0100
0000
,
2003
0000
0100
3100
0032
0000
1000
0100
0020
0000
1000
0030
0100
0000
0100
0000
,
0200
0000
0000
0300
0203
0000
0010
0001
1010
0000
0001
0000
1000
0000
0001
0000
,
1000
0001
1310
0001
1010
0001
1010
0001
,
1010
0100
1010
0100
1010
0100
1010
0100
,
0011
1000
0011
1000
0011
1000
0011
1000
,
0011
0000
0000
0000
0100
0100
0000
0010
0010
0000
1000
1000
1000
0010
0010
0000
,
1100
0001
1100
0000
0010
0001
0010
2002
0110
0000
3003
2002
0000
0000
3203
0000
,
0000
0322
1000
0000
0200
0000
1000
0000
1333
0000
0001
0022
1000
0000
0033
0022
,
0000
0000
2033
0000
0000
3220
1000
0000
2000
0000
0001
0000
3331
0010
0100
2002
,
0110
0000
3003
2002
0000
0000
3203
0000
0000
0322
1100
0000
0200
0000
1000
0000
,
1333
0000
0010
1000
0110
0000
0010
0000
2200
0000
0000
0000
0000
3300
0220
0000
,
0000
2002
0000
0030
3313
0001
0010
2002
0010
0000
3003
2002
0000
0000
3203
0000
,
0000
0322
1100
0000
0200
0000
1000
0000
1333
0000
0001
0022
1000
0000
0033
0022
,
0000
0000
2033
0000
0000
3220
1000
0000
2000
0000
0001
0000
3331
0010
0100
2002
,
0110
0000
3003
2002
0000
0000
3203
0000
0000
0322
1100
0000
0200
0000
1000
0000
,
1333
0010
0100
0010
0001
0000
0001
0001
1000
0100
1010
0001
1110
0001
1100
0010
,
0001
0000
1000
0000
0001
1000
0000
0001
1000
0000
0001
0000
1000
0001
1000
0000
,
0100
0010
0100
0010
1000
0100
0010
0001
2000
0000
0110
0000
0110
0000
0001
0010
,
3100
0000
0001
0000
0100
0001
0000
0100
0001
0000
0100
0000
0001
0100
0001
0000
,
0011
0000
1100
0000
0011
0000
1000
1000
0011
0000
1100
0000
0011
0000
0000
0000
,
0011
0000
0000
2002
0110
0000
3003
2002
0000
0000
3203
0000
0000
0322
0000
0000
,
0200
0000
0000
0000
1333
0000
0001
0022
1000
0000
0033
0022
0000
0000
2033
0000
,
0000
3220
0000
0000
2000
0000
0000
0000
3331
0000
0000
2002
0110
0000
3003
2002
,
0000
0000
3203
0000
0000
0322
1100
0000
0200
0000
0000
0000
1333
1000
0001
0000
,
1100
0000
0010
0010
1100
0001
0010
2200
0000
0000
3300
2200
0000
0000
0000
0000
,
3300
0000
0000
0000
,
0000
0000
0000
0000
,
0000
0000
0000
0000
,
0000
0000
0000
0000
,
0000
0000
0000
0000
,
0000
0000
0000
0000
,
0000
0000
0000
0000
,
0000
0000
0000
0000
,
0000
0000
0000
0000
,
0000
0000
0000
0000
,
0000
0000
0000
0000
,
0000
0000
0000
0000
,
0000
0000
0000
0000
,
0000
0000
0000
0000
,
0000
0000
0000
0000
;
